Login

  

The Darkest Minds (2018) Web-Dl





Thread creado por GrosoyGroso el 02/10/2018 01:36:57 pm. Lecturas: 26. Mensajes: 9. Favoritos: 0





02/10/2018 01:36:57 pm 
       8                           
GrosoyGroso


Miembro desde: 11/02/2012

Threads abiertos: 62
Mensajes: 528  
Subtítulos subidos: 195
Threads Favoritos: 0











The.Darkest.Minds.2018.WEB-DL.XviD.MP3-FGT
The.Darkest.Minds.2018.WEB-DL.XviD.AC3-FGT
The.Darkest.Minds.2018.WEB-DL.x264-FGT
The.Darkest.Minds.2018.1080p.WEB-DL.DD5.1.H264-FGT
The.Darkest.Minds.2018.720p.WEB-DL.XviD.AC3-FGT

The Darkest Minds 2018 720p WEB-DL H264 - AvoHD
IMDB: 5.5/10

Video
ID : 1
Format : AVC
Format/Info : Advanced Video Codec
Format profile : [email protected]
Format settings : CABAC / 5 Ref Frames
Format settings, CABAC : Yes
Format settings, ReFrames : 5 frames
Codec ID : V_MPEG4/ISO/AVC
Duration : 1 h 44 min
Bit rate : 4 537 kb/s
Width : 1 920 pixels
Height : 804 pixels
Display aspect ratio : 2.40:1
Frame rate mode : Constant
Frame rate : 23.976 FPS
Color space : YUV
Chroma subsampling : 4:2:0
Bit depth : 8 bits
Scan type : Progressive
Bits/(PixelFrame) : 0.123
Stream size : 3.31 GiB (92%)
Title : The.Darkest.Minds.2018.1080p.WEB-DL.DD5.1.H264-FGT
Language : English
Default : Yes
Forced : No
Color range : Limited
Color primaries : BT.709
Transfer characteristics : BT.709
Matrix coefficients : BT.709

Audio
ID : 2
Format : AC-3
Format/Info : Audio Coding 3
Codec ID : A_AC3
Duration : 1 h 43 min
Bit rate mode : Constant
Bit rate : 384 kb/s
Channel(s) : 6 channels
Channel positions : Front: L C R, Side: L R, LFE
Sampling rate : 48.0 kHz
Frame rate : 31.250 FPS (1536 SPF)
Bit depth : 16 bits
Compression mode : Lossy
Stream size : 285 MiB (8%)
Title : The.Darkest.Minds.2018.1080p.WEB-DL.DD5.1.H264-FGT
Language : English
Service kind : Complete Main
Default : Yes
Forced : No

Text
ID : 3
Format : UTF-8
Codec ID : S_TEXT/UTF8
Codec ID/Info : UTF-8 Plain Text
Duration : 1 h 36 min
Bit rate : 52 b/s
Count of elements : 1372
Stream size : 37.1 KiB (0%)
Language : English
Default : Yes
Forced : No



88 8



02/10/2018 05:41:29 pm 
       6                           
vicessa


Miembro desde: 13/02/2010

Threads abiertos: 1
Mensajes: 1156  
Subtítulos subidos: 2
Threads Favoritos: 0





esta de moda la fantasia de ser un mocoso con superpoderes......el chiste es simplemente ......el dinero,,,,q idiotez


02/10/2018 08:48:29 pm 
       5                           

02/10/2018 09:54:10 pm 
       6                           
WCARLASO


Miembro desde: 11/10/2003

Threads abiertos: 1
Mensajes: 3137  
Subtítulos subidos: 5
Threads Favoritos: 0





acabo de verla, es la pelicula mas estupida q vi desde los juegos del hambre y esa trilogia boluda q i terminaron, divergente, dios.....


02/10/2018 10:16:48 pm 
       2                           
Agregado a Últimos Estrenos - Octubre. Saludos.


04/10/2018 04:54:38 am 
       2                           
Supongo que si uno tiene entre 10 y 13 años este estilo de peliculas deben parecer emocionantes, sino no me explico la cantidad de peliculas y series de este estilo que sacan.


04/10/2018 09:08:25 pm 
       2                           
chinchin


Miembro desde: 05/02/2007

Threads abiertos: 14
Mensajes: 1355  
Subtítulos subidos: 1
Threads Favoritos: 0





No pude terminar de verla....


05/10/2018 03:21:26 pm 
       1                           
Lo que me sorprende mas son sus SUPER PODERES para no sudar, ensuciarse o despeinarse...


05/10/2018 11:07:10 pm 
       0                           
mala mal




rate

1
Deepesh A K | 30 : النبلاء | Uniblue SpeedUpMyPC 2014 v6.0.4.9.